Диафильмы / Audio Diafilms 2 [18 шт]

Звук:

Format : MPEG Audio
Format version : Version 1
Format profile : Layer 3
Mode : Joint stereo
Mode extension : MS Stereo
Codec ID : 55
Codec ID/Hint : MP3
Duration : 7mn 41s
Bit rate mode : Constant
Bit rate : 112 Kbps
Channel(s) : 2 channels
Sampling rate : 44.1 KHz
Stream size : 6.17 MiB (11%)
Alignment : Split accross interleaves
Interleave, duration : 80 ms (2.00 video frames)
Interleave, preload duration : 500 ms
Writing library : LAME3.98r
Encoding settings : -m j -V 4 -q 2 -lowpass 15.6 -b 112

Language : Russian

Видео:

Format : MPEG-4 Visual
Format profile : Advanced Simple@L5
Format settings, BVOP : No
Format settings, QPel : No
Format settings, GMC : No warppoints
Format settings, Matrix : Custom
Codec ID : XVID
Codec ID/Hint : XviD
Duration : 7mn 41s
Bit rate : 861 Kbps
Width : 704 pixels
Height : 528 pixels
Display aspect ratio : 4:3
Frame rate : 25.000 fps
Color space : YUV
Chroma subsampling : 4:2:0
Bit depth : 8 bits
Scan type : Progressive
Bits/(Pixel*Frame) : 0.093
Stream size : 47.4 MiB (88%)
Writing library : XviD 1.2.1 (UTC 2008-12-04)

Список диафильмов:

1.Беспокойный Яшка
2.Бычок-черный бочек, белое копытце
3.Два Плута
4.Храбрый портной
5.Как поссорились две кошки
6.Кот-серый лоб, козел да баран
7.Лоскутик и облако
8.Попугай и черепаха
9.Про Машеньку и зубную щетку
10.Проделки братца кролика
11.Счастливый Ганс
12.Сказка о золотом петушке
13.Тростниковая шапка
14.Ухти-тухти
15.Вежливое слово
16.Война крокодилов
17.Зимовье зверей
18.Звери наших лесов

ЖанрДиафильмы
ПереводНе требуется
КодекMPEG-4
СтранаСССР

Скачать торрент Диафильмы [Audio Diafilms 2 [18 шт]]

КачествоРазмерСезон/СерияДобавленоПеревод 
DVDRip, PAL 4:3, 704х528, 25.000
Подробнее
214.1 Мб - 12 июня 2011 г. Ссылка доступна после регистрации
DVDRip, PAL 4:3, 704х528, 25.000
Подробнее
214.1 Мб - 04 июня 2011 г. Ссылка доступна после регистрации
DVDRip, PAL 4:3, 704х528, 25.000
Подробнее
214.1 Мб - 27 мая 2011 г. Ссылка доступна после регистрации
DVDRip, PAL 4:3, 704х528, 25.000
Подробнее
214.1 Мб - 20 мая 2011 г. Ссылка доступна после регистрации
DVDRip, PAL 4:3, 704х528, 25.000
Подробнее
214.1 Мб - 12 мая 2011 г. Ссылка доступна после регистрации
DVDRip, PAL 4:3, 704х528, 25.000
Подробнее
214.1 Мб - 06 мая 2011 г. Ссылка доступна после регистрации
DVDRip, PAL 4:3, 704х528, 25.000
Подробнее
214.1 Мб - 27 апреля 2011 г. Ссылка доступна после регистрации
DVDRip, PAL 4:3, 704х528, 25.000
Подробнее
214.1 Мб - 19 апреля 2011 г. Ссылка доступна после регистрации
DVDRip, PAL 4:3, 704х528, 25.000
Подробнее
214.1 Мб - 11 апреля 2011 г. Ссылка доступна после регистрации
DVDRip, PAL 4:3, 704х528, 25.000
Подробнее
214.1 Мб - 03 апреля 2011 г. Ссылка доступна после регистрации
DVDRip, PAL 4:3, 704х528, 25.000
Подробнее
214.1 Мб - 26 марта 2011 г. Ссылка доступна после регистрации
DVDRip, PAL 4:3, 704х528, 25.000
Подробнее
214.1 Мб - 19 марта 2011 г. Ссылка доступна после регистрации
DVDRip, PAL 4:3, 704х528, 25.000
Подробнее
214.1 Мб - 11 марта 2011 г. Ссылка доступна после регистрации
DVDRip, PAL 4:3, 704х528, 25.000
Подробнее
214.1 Мб - 03 марта 2011 г. Ссылка доступна после регистрации
DVDRip, PAL 4:3, 704х528, 25.000
Подробнее
214.1 Мб - 21 февраля 2011 г. Ссылка доступна после регистрации
DVDRip, PAL 4:3, 704х528, 25.000
Подробнее
214.1 Мб - 13 февраля 2011 г. Ссылка доступна после регистрации
DVDRip, PAL 4:3, 704х528, 25.000
Подробнее
214.1 Мб - 05 февраля 2011 г. Ссылка доступна после регистрации
DVDRip, PAL 4:3, 704х528, 25.000
Подробнее
214.1 Мб - 28 января 2011 г. Ссылка доступна после регистрации
DVDRip, PAL 4:3, 704х528, 25.000
Подробнее
1.9 Гб - 25 января 2011 г. Ссылка доступна после регистрации
Разное
Подробнее
877.2 Мб - 19 января 2011 г. Ссылка доступна после регистрации
Регистрация


Похожие торренты Диафильмы - Audio Diafilms 2 [18 шт]

ДиафильмыРазное18 января 2011 г.файлов: 1

Отзывы

Rambler's Top100 Rambler's Top100